osu file format v14

[General]
AudioFilename: URF-SZvO5Yg.mp3
AudioLeadIn: 1500
PreviewTime: 46676
Countdown: 0
SampleSet: Normal
StackLeniency: 0.7
Mode: 1
LetterboxInBreaks: 0
WidescreenStoryboard: 0

[Editor]
DistanceSpacing: 0.5
BeatDivisor: 4
GridSize: 32
TimelineZoom: 1.779999

[Metadata]
Title:Star map
TitleUnicode:Star map
Artist:Shimotsuki Haruka
ArtistUnicode:霜月はるか
Creator:BlackHairEND
Version:Oni
Source:見上げてごらん、夜空の星を
Tags:PULLTOP eroge visual novel opening miagete goran yozora no hoshi o JUDYDANNY
BeatmapID:766958
BeatmapSetID:347598

[Difficulty]
HPDrainRate:6
CircleSize:5
OverallDifficulty:5
ApproachRate:5
SliderMultiplier:1.4
SliderTickRate:1

[Events]
//Background and Video events
0,0,"Shiratori Orihime.jpg",0,70
//Break Periods
//Storyboard Layer 0 (Background)
//Storyboard Layer 1 (Fail)
//Storyboard Layer 2 (Pass)
//Storyboard Layer 3 (Foreground)
//Storyboard Sound Samples

[TimingPoints]
571,315.789473684211,4,1,0,60,1,0
5623,-100,4,1,0,80,0,0
15571,-100,4,1,0,50,0,0
25676,-100,4,1,0,80,0,0
47307,-100,4,1,0,90,0,1
87728,-100,4,1,0,80,0,0

[HitObjects]
32,160,571,5,2,0:0:0:0:
192,224,886,1,0,0:0:0:0:
192,224,1044,1,2,0:0:0:0:
224,224,1360,1,0,0:0:0:0:
288,224,1518,1,0,0:0:0:0:
64,192,2465,1,0,0:0:0:0:
256,224,2781,1,2,0:0:0:0:
256,224,3097,1,2,0:0:0:0:
256,224,3413,1,0,0:0:0:0:
256,224,3571,1,2,0:0:0:0:
224,224,4044,1,0,0:0:0:0:
448,224,4992,1,0,0:0:0:0:
448,256,5307,1,2,0:0:0:0:
128,192,5623,1,6,0:0:0:0:
384,256,5939,1,0,0:0:0:0:
256,224,6097,1,0,0:0:0:0:
128,192,6255,1,2,0:0:0:0:
64,192,6571,1,0,0:0:0:0:
416,256,7202,1,0,0:0:0:0:
416,256,7518,1,2,0:0:0:0:
448,320,7834,1,0,0:0:0:0:
96,192,8149,1,2,0:0:0:0:
320,256,8465,1,0,0:0:0:0:
320,256,8623,1,2,0:0:0:0:
160,192,8781,1,2,0:0:0:0:
384,256,9097,1,0,0:0:0:0:
192,192,9413,1,0,0:0:0:0:
256,224,9571,1,0,0:0:0:0:
256,224,9728,1,0,0:0:0:0:
256,224,10044,1,2,0:0:0:0:
384,256,10360,1,2,0:0:0:0:
384,256,10518,1,2,0:0:0:0:
384,256,10676,1,0,0:0:0:0:
128,192,10992,1,0,0:0:0:0:
96,192,11149,1,2,0:0:0:0:
256,224,11307,1,0,0:0:0:0:
288,224,11623,1,2,0:0:0:0:
160,192,11939,1,2,0:0:0:0:
256,224,12097,1,2,0:0:0:0:
256,224,12255,1,2,0:0:0:0:
256,224,12571,1,2,0:0:0:0:
256,256,12728,1,2,0:0:0:0:
256,256,12886,1,2,0:0:0:0:
352,256,13202,1,2,0:0:0:0:
384,288,13360,1,2,0:0:0:0:
384,288,13518,1,2,0:0:0:0:
384,288,13676,1,2,0:0:0:0:
384,288,13834,1,2,0:0:0:0:
384,288,13992,1,2,0:0:0:0:
384,288,14149,1,0,0:0:0:0:
384,288,14307,1,0,0:0:0:0:
96,192,14465,1,2,0:0:0:0:
224,256,14623,1,0,0:0:0:0:
96,192,14939,1,4,0:0:0:0:
256,256,15255,1,6,0:0:0:0:
128,192,15413,1,0,0:0:0:0:
192,192,15492,1,0,0:0:0:0:
192,192,15571,1,0,0:0:0:0:
96,160,15728,1,2,0:0:0:0:
160,192,16044,1,2,0:0:0:0:
128,160,16202,1,2,0:0:0:0:
192,224,16676,1,2,0:0:0:0:
288,224,16992,1,0,0:0:0:0:
416,256,17307,1,2,0:0:0:0:
416,256,17465,1,0,0:0:0:0:
448,256,17781,1,2,0:0:0:0:
448,256,17939,1,0,0:0:0:0:
64,192,18255,1,0,0:0:0:0:
288,224,18571,1,2,0:0:0:0:
128,192,18728,1,2,0:0:0:0:
192,160,19044,1,2,0:0:0:0:
256,192,19360,1,0,0:0:0:0:
160,192,19518,1,0,0:0:0:0:
96,192,19834,1,0,0:0:0:0:
288,224,19992,1,2,0:0:0:0:
288,256,20307,1,2,0:0:0:0:
288,224,20781,1,2,0:0:0:0:
96,160,20939,1,0,0:0:0:0:
64,352,21097,1,0,0:0:0:0:
128,352,21255,1,2,0:0:0:0:
224,160,21571,1,2,0:0:0:0:
96,160,21728,1,2,0:0:0:0:
288,224,21886,1,0,0:0:0:0:
416,256,22202,1,2,0:0:0:0:
416,256,22518,1,0,0:0:0:0:
448,256,22834,1,2,0:0:0:0:
0,352,22992,1,0,0:0:0:0:
64,192,23307,1,2,0:0:0:0:
352,224,23781,1,0,0:0:0:0:
288,224,23939,1,0,0:0:0:0:
32,160,24097,1,2,0:0:0:0:
256,192,24413,1,0,0:0:0:0:
96,192,24728,5,2,0:0:0:0:
384,256,24807,1,2,0:0:0:0:
384,256,24886,1,2,0:0:0:0:
96,384,25044,1,0,0:0:0:0:
32,384,25123,1,0,0:0:0:0:
320,256,25202,1,2,0:0:0:0:
288,256,25360,1,0,0:0:0:0:
160,192,25518,1,0,0:0:0:0:
128,192,25834,5,0,0:0:0:0:
288,224,26149,1,0,0:0:0:0:
160,224,26307,1,0,0:0:0:0:
288,224,26465,1,2,0:0:0:0:
288,224,26781,1,0,0:0:0:0:
288,224,27097,1,0,0:0:0:0:
128,160,27255,1,2,0:0:0:0:
288,224,27413,1,0,0:0:0:0:
96,192,27571,1,2,0:0:0:0:
224,192,27886,1,2,0:0:0:0:
128,160,28044,1,0,0:0:0:0:
256,224,28360,1,2,0:0:0:0:
192,160,28676,1,2,0:0:0:0:
160,192,28834,1,2,0:0:0:0:
256,256,29149,1,2,0:0:0:0:
416,224,29307,1,0,0:0:0:0:
416,256,29465,1,0,0:0:0:0:
192,128,29623,1,2,0:0:0:0:
320,256,29781,1,2,0:0:0:0:
320,256,29860,1,2,0:0:0:0:
128,192,29939,1,2,0:0:0:0:
96,192,30097,1,0,0:0:0:0:
320,256,30255,1,2,0:0:0:0:
96,192,30571,1,2,0:0:0:0:
256,224,30728,1,2,0:0:0:0:
256,224,30886,1,0,0:0:0:0:
416,256,31360,1,0,0:0:0:0:
416,256,31518,1,2,0:0:0:0:
160,160,31834,1,2,0:0:0:0:
256,160,31992,1,2,0:0:0:0:
384,288,32149,1,0,0:0:0:0:
384,288,32307,1,0,0:0:0:0:
448,64,32465,1,0,0:0:0:0:
416,288,32781,1,2,0:0:0:0:
192,192,33097,1,0,0:0:0:0:
448,256,33413,1,0,0:0:0:0:
64,160,33728,1,0,0:0:0:0:
256,192,33886,1,0,0:0:0:0:
128,192,34044,1,2,0:0:0:0:
288,224,34360,1,0,0:0:0:0:
256,192,34518,1,6,0:0:0:0:
256,224,34834,1,6,0:0:0:0:
256,224,35149,1,6,0:0:0:0:
160,160,35465,1,6,0:0:0:0:
128,192,35939,1,4,0:0:0:0:
320,224,36255,1,0,0:0:0:0:
416,256,36571,1,2,0:0:0:0:
416,256,36728,1,0,0:0:0:0:
416,256,36886,1,2,0:0:0:0:
192,192,37202,1,0,0:0:0:0:
384,256,37360,1,2,0:0:0:0:
384,256,37676,1,2,0:0:0:0:
384,256,37834,1,0,0:0:0:0:
384,256,37992,1,2,0:0:0:0:
384,256,38149,1,0,0:0:0:0:
96,192,38465,1,2,0:0:0:0:
288,256,38781,1,0,0:0:0:0:
416,288,38939,1,0,0:0:0:0:
352,256,39097,1,2,0:0:0:0:
416,288,39413,1,0,0:0:0:0:
160,192,39728,1,2,0:0:0:0:
384,224,40202,1,0,0:0:0:0:
384,256,40281,1,0,0:0:0:0:
384,256,40360,1,2,0:0:0:0:
384,256,40518,1,0,0:0:0:0:
384,256,40676,1,2,0:0:0:0:
96,192,40992,1,4,0:0:0:0:
32,192,41307,1,0,0:0:0:0:
288,256,41465,1,0,0:0:0:0:
288,256,41623,1,2,0:0:0:0:
288,256,41781,1,0,0:0:0:0:
224,192,42097,1,6,0:0:0:0:
288,224,42413,1,2,0:0:0:0:
288,224,42571,1,2,0:0:0:0:
128,192,42728,1,0,0:0:0:0:
224,192,42807,1,0,0:0:0:0:
224,192,42886,1,2,0:0:0:0:
224,224,43044,1,0,0:0:0:0:
288,256,43202,1,2,0:0:0:0:
288,256,43360,1,0,0:0:0:0:
288,256,43518,1,4,0:0:0:0:
192,192,43834,1,0,0:0:0:0:
384,224,43992,1,2,0:0:0:0:
416,224,44149,1,2,0:0:0:0:
416,224,44307,1,0,0:0:0:0:
192,224,44623,1,6,0:0:0:0:
96,160,44939,1,4,0:0:0:0:
320,224,45255,1,4,0:0:0:0:
320,224,45571,1,6,0:0:0:0:
128,192,45886,1,2,0:0:0:0:
416,288,45965,1,2,0:0:0:0:
416,288,46044,1,2,0:0:0:0:
416,288,46202,1,0,0:0:0:0:
416,288,46360,1,0,0:0:0:0:
416,256,46518,1,2,0:0:0:0:
416,256,46597,1,2,0:0:0:0:
416,256,46676,1,0,0:0:0:0:
416,256,46834,1,0,0:0:0:0:
416,256,46992,1,2,0:0:0:0:
224,224,47307,1,4,0:0:0:0:
288,192,47623,1,0,0:0:0:0:
320,224,47781,1,2,0:0:0:0:
288,224,48097,1,0,0:0:0:0:
288,224,48176,1,0,0:0:0:0:
288,224,48255,1,0,0:0:0:0:
288,224,48413,1,2,0:0:0:0:
160,192,48571,1,0,0:0:0:0:
288,224,48728,1,0,0:0:0:0:
128,160,48886,1,2,0:0:0:0:
288,224,49044,1,0,0:0:0:0:
96,192,49360,1,0,0:0:0:0:
256,224,49518,1,2,0:0:0:0:
320,192,49834,1,2,0:0:0:0:
352,224,49992,1,0,0:0:0:0:
352,224,50071,1,0,0:0:0:0:
352,224,50149,1,2,0:0:0:0:
160,160,50307,1,0,0:0:0:0:
224,160,50465,1,2,0:0:0:0:
192,224,50623,1,0,0:0:0:0:
224,224,50781,1,2,0:0:0:0:
256,224,50939,1,2,0:0:0:0:
320,224,51018,1,0,0:0:0:0:
320,224,51097,1,2,0:0:0:0:
320,224,51413,1,0,0:0:0:0:
96,160,51492,1,0,0:0:0:0:
320,224,51571,1,0,0:0:0:0:
320,224,51728,1,2,0:0:0:0:
320,224,51886,1,2,0:0:0:0:
128,160,52360,1,4,0:0:0:0:
256,192,52676,1,2,0:0:0:0:
64,192,52834,1,0,0:0:0:0:
96,192,53149,1,0,0:0:0:0:
288,224,53228,1,0,0:0:0:0:
288,224,53307,1,0,0:0:0:0:
288,224,53465,1,2,0:0:0:0:
288,224,53623,1,0,0:0:0:0:
288,224,53781,1,0,0:0:0:0:
320,160,53939,1,2,0:0:0:0:
384,256,54097,1,0,0:0:0:0:
96,192,54413,1,0,0:0:0:0:
256,224,54571,1,2,0:0:0:0:
192,192,54886,1,2,0:0:0:0:
256,192,54965,1,2,0:0:0:0:
256,192,55044,1,0,0:0:0:0:
256,192,55202,1,2,0:0:0:0:
256,192,55360,1,0,0:0:0:0:
256,192,55518,1,0,0:0:0:0:
256,192,55676,1,2,0:0:0:0:
224,224,55992,1,6,0:0:0:0:
96,192,56307,1,4,0:0:0:0:
288,224,56623,1,4,0:0:0:0:
320,224,56939,1,6,0:0:0:0:
288,192,57097,1,0,0:0:0:0:
288,192,57176,1,0,0:0:0:0:
288,192,57255,1,0,0:0:0:0:
288,192,57413,1,6,0:0:0:0:
192,192,57728,1,0,0:0:0:0:
256,224,57886,1,2,0:0:0:0:
128,192,58202,1,0,0:0:0:0:
288,224,58281,1,0,0:0:0:0:
288,224,58360,1,0,0:0:0:0:
288,224,58518,1,2,0:0:0:0:
288,224,58676,1,0,0:0:0:0:
192,160,58834,1,0,0:0:0:0:
192,96,58992,1,2,0:0:0:0:
288,224,59149,1,0,0:0:0:0:
64,192,59465,1,0,0:0:0:0:
256,224,59623,1,2,0:0:0:0:
128,192,59939,1,0,0:0:0:0:
288,224,60097,1,0,0:0:0:0:
288,224,60176,1,0,0:0:0:0:
288,224,60255,1,2,0:0:0:0:
288,224,60413,1,0,0:0:0:0:
160,192,60571,1,0,0:0:0:0:
288,224,60728,1,2,0:0:0:0:
288,224,60886,1,0,0:0:0:0:
288,224,61044,1,2,0:0:0:0:
256,192,61123,1,2,0:0:0:0:
288,224,61202,1,2,0:0:0:0:
160,192,61360,1,0,0:0:0:0:
256,224,61518,1,2,0:0:0:0:
0,352,61597,1,0,0:0:0:0:
320,224,61676,1,0,0:0:0:0:
256,224,61834,1,0,0:0:0:0:
0,352,61992,1,2,0:0:0:0:
64,352,62307,1,0,0:0:0:0:
288,224,62465,1,6,0:0:0:0:
416,224,62781,1,2,0:0:0:0:
416,256,62939,1,0,0:0:0:0:
416,256,63255,1,0,0:0:0:0:
416,256,63413,1,2,0:0:0:0:
128,192,63571,1,0,0:0:0:0:
416,288,63728,1,0,0:0:0:0:
416,256,64044,1,2,0:0:0:0:
416,256,64361,1,0,0:0:0:0:
224,192,64439,1,0,0:0:0:0:
288,224,64518,1,0,0:0:0:0:
320,224,64676,1,2,0:0:0:0:
320,224,64834,1,0,0:0:0:0:
192,160,64992,1,6,0:0:0:0:
288,224,65149,1,0,0:0:0:0:
320,224,65228,1,0,0:0:0:0:
320,224,65307,1,2,0:0:0:0:
320,224,65465,1,0,0:0:0:0:
64,192,65623,1,6,0:0:0:0:
224,192,65939,1,2,0:0:0:0:
288,192,66097,1,0,0:0:0:0:
224,192,66255,1,6,0:0:0:0:
128,160,66413,1,0,0:0:0:0:
192,160,66492,1,0,0:0:0:0:
192,160,66571,1,2,0:0:0:0:
192,160,66728,1,0,0:0:0:0:
192,160,66886,1,2,0:0:0:0:
128,192,66965,1,2,0:0:0:0:
256,224,67044,1,0,0:0:0:0:
288,224,67202,1,2,0:0:0:0:
288,224,67281,1,2,0:0:0:0:
288,224,67360,1,0,0:0:0:0:
384,256,67439,1,0,0:0:0:0:
384,256,67518,1,2,0:0:0:0:
192,224,67834,1,0,0:0:0:0:
256,224,67992,1,2,0:0:0:0:
288,224,68307,1,0,0:0:0:0:
288,224,68386,1,0,0:0:0:0:
288,224,68465,1,0,0:0:0:0:
288,224,68623,1,2,0:0:0:0:
160,192,68781,1,0,0:0:0:0:
288,224,68939,1,0,0:0:0:0:
128,160,69097,1,2,0:0:0:0:
288,224,69255,1,0,0:0:0:0:
96,192,69571,1,0,0:0:0:0:
256,224,69728,1,2,0:0:0:0:
320,192,70044,1,2,0:0:0:0:
352,224,70202,1,0,0:0:0:0:
352,224,70281,1,0,0:0:0:0:
352,224,70360,1,2,0:0:0:0:
160,160,70518,1,0,0:0:0:0:
224,160,70676,1,2,0:0:0:0:
192,224,70834,1,0,0:0:0:0:
224,224,70992,1,2,0:0:0:0:
256,224,71149,1,2,0:0:0:0:
320,224,71228,1,0,0:0:0:0:
320,224,71307,1,2,0:0:0:0:
320,224,71623,1,0,0:0:0:0:
160,160,71702,1,0,0:0:0:0:
320,224,71781,1,0,0:0:0:0:
320,224,71939,1,2,0:0:0:0:
320,224,72097,1,2,0:0:0:0:
128,160,72571,1,4,0:0:0:0:
256,192,72886,1,2,0:0:0:0:
64,192,73044,1,0,0:0:0:0:
96,192,73360,1,0,0:0:0:0:
288,224,73439,1,0,0:0:0:0:
288,224,73518,1,0,0:0:0:0:
288,224,73676,1,2,0:0:0:0:
288,224,73834,1,0,0:0:0:0:
288,224,73992,1,0,0:0:0:0:
256,160,74149,1,2,0:0:0:0:
384,256,74307,1,0,0:0:0:0:
96,192,74623,1,0,0:0:0:0:
256,224,74781,1,2,0:0:0:0:
192,192,75097,1,2,0:0:0:0:
256,192,75176,1,2,0:0:0:0:
256,192,75255,1,0,0:0:0:0:
256,192,75413,1,2,0:0:0:0:
256,192,75571,1,0,0:0:0:0:
256,192,75728,1,0,0:0:0:0:
256,192,75886,1,2,0:0:0:0:
224,224,76202,1,6,0:0:0:0:
96,192,76518,1,4,0:0:0:0:
288,224,76834,1,4,0:0:0:0:
320,224,77149,1,6,0:0:0:0:
288,192,77307,1,0,0:0:0:0:
288,192,77386,1,0,0:0:0:0:
288,192,77465,1,0,0:0:0:0:
288,192,77623,1,6,0:0:0:0:
192,192,77939,1,0,0:0:0:0:
256,224,78097,1,2,0:0:0:0:
128,192,78413,1,0,0:0:0:0:
288,224,78492,1,0,0:0:0:0:
288,224,78571,1,0,0:0:0:0:
288,224,78728,1,2,0:0:0:0:
288,224,78886,1,0,0:0:0:0:
288,224,79044,1,0,0:0:0:0:
160,160,79123,1,0,0:0:0:0:
160,192,79202,1,2,0:0:0:0:
288,224,79360,1,0,0:0:0:0:
64,192,79676,1,0,0:0:0:0:
256,224,79834,1,2,0:0:0:0:
128,192,80149,1,0,0:0:0:0:
288,224,80307,1,0,0:0:0:0:
288,224,80386,1,0,0:0:0:0:
288,224,80465,1,2,0:0:0:0:
288,224,80623,1,0,0:0:0:0:
160,192,80781,1,0,0:0:0:0:
288,224,80939,1,2,0:0:0:0:
288,224,81097,1,0,0:0:0:0:
288,224,81255,1,2,0:0:0:0:
256,192,81334,1,2,0:0:0:0:
288,224,81413,1,2,0:0:0:0:
160,192,81571,1,0,0:0:0:0:
256,224,81728,1,2,0:0:0:0:
256,224,82044,1,0,0:0:0:0:
352,256,82202,1,2,0:0:0:0:
224,160,82360,1,0,0:0:0:0:
256,160,82439,1,0,0:0:0:0:
224,96,82518,1,0,0:0:0:0:
288,224,82676,1,2,0:0:0:0:
160,192,82834,1,2,0:0:0:0:
256,224,82992,1,0,0:0:0:0:
288,224,83149,1,0,0:0:0:0:
288,256,83307,1,2,0:0:0:0:
96,160,83465,1,2,0:0:0:0:
192,160,83623,1,0,0:0:0:0:
288,192,83939,1,0,0:0:0:0:
288,224,84097,1,0,0:0:0:0:
288,224,84255,1,2,0:0:0:0:
160,160,84413,1,2,0:0:0:0:
224,160,84571,1,0,0:0:0:0:
256,192,84728,1,0,0:0:0:0:
256,192,84886,1,2,0:0:0:0:
256,192,85044,1,2,0:0:0:0:
64,192,85202,1,4,0:0:0:0:
288,224,85518,1,2,0:0:0:0:
96,160,85676,1,0,0:0:0:0:
320,224,85834,1,6,0:0:0:0:
192,160,85992,1,0,0:0:0:0:
256,160,86071,1,0,0:0:0:0:
224,224,86149,1,2,0:0:0:0:
320,224,86307,1,2,0:0:0:0:
160,192,86386,1,2,0:0:0:0:
192,192,86465,1,0,0:0:0:0:
96,192,86623,1,2,0:0:0:0:
224,192,86781,1,0,0:0:0:0:
256,224,86939,1,2,0:0:0:0:
128,192,87255,1,0,0:0:0:0:
288,224,87413,1,0,0:0:0:0:
288,256,87492,1,0,0:0:0:0:
288,256,87571,1,0,0:0:0:0:
288,256,87728,1,6,0:0:0:0:
